Tag Archives: Acrylic

EzFlow Acrylic System Instructional

EzFlow Acrylic System Instructional
DVD5 | English | VOB | 720×480 | MPEG 7420 Kbps 29.970 fps | PCM 1536 Kbps 48.0 khz | 40mn 30s | 2.58 GB
Genre: Video Training
“Complete training system for mastering EzFlow Acrylic System in DVD format. Step-by-step guide in sculpturing pink and white, 4 color fade with 3-D flower, tiger stripes, and flower design.”
MediaInfo:General
Complete name : VTS_01_1.VOB
Format : MPEG-PS
File size : 1 023 MiB
Duration : 15mn 38s
Overall bit rate mode : Variable
Overall bit rate : 9 138 Kbps

Video
ID : 224 (0xE0)
Format : MPEG Video
Format version : Version 2
Format profile : Main@Main
Format settings, BVOP : Yes
Format settings, Matrix : Default
Format settings, GOP : M=3, N=15
Duration : 15mn 38s
Bit rate mode : Variable
Bit rate : 7 420 Kbps
Maximum bit rate : 7 500 Kbps
Width : 720 pixels
Height : 480 pixels
Display aspect ratio : 4:3
Frame rate : 29.970 fps
Standard : NTSC
Color space : YUV
Chroma subsampling : 4:2:0
Bit depth : 8 bits
Scan type : Interlaced
Scan order : Bottom Field First
Compression mode : Lossy
Bits/(Pixel*Frame) : 0.716
Stream size : 831 MiB (81%)
Color primaries : SMPTE 170M
Transfer characteristics : SMPTE 170M
Matrix coefficients : SMPTE 170M

Audio
ID : 189 (0xBD)-160 (0xA0)
Format : PCM
Format settings, Endianness : Big
Format settings, Sign : Signed
Muxing mode : DVD-Video
Duration : 15mn 38s
Bit rate mode : Constant
Bit rate : 1 536 Kbps
Channel(s) : 2 channels
Sampling rate : 48.0 KHz
Bit depth : 16 bits
Stream size : 172 MiB (17%)
Screenshots

no mirrors please, Follow The Rules
Visit Polik88 Blog Here
no password

Continue reading